Leaderboard


Popular Content

Showing most liked content since 01/28/2017 in all areas

  1. 5 likes
    Munthiri Vallikal Thalirkkumbol [2017] Download Malayalam Movie DESI SCR x264 AAC 700MB ZippyMovieZ ExCluSivE First on Net Screenshots Download Links Audio 8/10 Video 7/10 ~Extreme Seeding Started~ Please click 'Thanks' as a token of appreciation of our effort. [ZippyMovieZ.US] Munthiri Vallikal Thalirkkumbol [2017] Malayalam DESI SCR x264 AAC 700MB ZippyMovieZ ExCluSivE.torrent Magnet Link It's A Team ZERG Release Always Seed After Complete Enjoy. Xtreme High Speed Seeding If you like this release please donate something to us Buy untouched Source PM to @Mr.Pink
  2. 3 likes
    S3 - Singam 3 (2017) Download Tamil Movie DeSi SCR x264 AAC 700MB ZippyMovieZ ExCluSivE SCREENSHOTS Download Links ~Extreme Seeding Started~ Please click 'Thanks' as a token of appreciation of our effort. . [ZippyMovieZ.CH] S3 - Singam 3 (2017) Tamil DeSi SCR x264 AAC 700MB ZippyMovieZ ExCluSivE.torrent Magnet Link
  3. 2 likes
    Si3 - Singam 3 (2017) Download Tamil Movie HDTS 720p x264 AAC 1GB ZippyMovieZ ExCluSivE SCREENSHOTS Download Links ~Extreme Seeding Started~ Please click 'Thanks' as a token of appreciation of our effort.
  4. 1 like
  5. 1 like
    Want to improve the site experience? Got an interesting idea? please share your interesting ideas
  6. 1 like
    Pulimurugan (2016) Download Malayalam Movie 720P HDRip 1GB x264 AAC 5.1 - ZERG SCREENSHOTS Download Links ~Extreme Seeding Started~ Please click 'Thanks' as a token of appreciation of our effort. [ZippyMovieZ.US] Pulimurugan (2016) Malayalam 720P HDRip 1GB x264 AAC 5.1 - ZERG.torrent Magnet Link
  7. 1 like
    @dxb feb last week
  8. 1 like
    Pallikoodam (2016) Download Malayalam Movie HDRip X264 700MB ZippyMovieZ Screenshots Download Links Watch online ~Extreme Seeding Started~ Please click 'Thanks' as a token of appreciation of our effort. [ZippyMovieZ.CH] Pallikoodam (2016) Malayalam HDRip X264 700MB ZippyMovieZ.torrent Magnet Link
  9. 1 like
    http://filesflash.com/5r35xxdn
  10. 1 like
    http://filesflash.com/5r35xxdn
  11. 1 like
    beena. Size: 7536144 bytes (7.19 MiB), duration: 00:01:37, avg.bitrate: 622 kb/s Audio: mp3, 32000 Hz, stereo, 56 kb/s Video: mpeg4, yuv420p, 320x240, 29.97 fps(r) Download link beena.avi - 7.19 MB
  12. 1 like
  13. 1 like
  14. 1 like
    Format : AVC Format/Info : Advanced Video Codec Format profile : [email protected] Format settings, CABAC : Yes Format settings, ReFrames : 8 frames Codec ID : V_MPEG4/ISO/AVC Duration : 1 h 59 min Bit rate : 1 074 kb/s Width : 1 280 pixels Height : 528 pixels Display aspect ratio : 2.40:1 Frame rate mode : Constant Frame rate : 25.000 FPS Color space : YUV Chroma subsampling : 4:2:0 Bit depth : 8 bits Scan type : Progressive Audio ID : 2 Format : AAC Format/Info : Advanced Audio Codec Format profile : HE-AAC / LC Codec ID : A_AAC Duration : 1 h 59 min Bit rate : 125 kb/s Channel(s) : 2 channels Channel positions : Front: L R Sampling rate : 44.1 kHz / 22.05 kHz Frame rate : 21.533 FPS (1024 spf) Compression mode : Lossy Language : Hindi Default : Yes Forced : Yes [Source: Thanks Alot hon3y Bhai Love U] Sample Including In Torrent Force 2 (2016) Hindi 720p DTHRip x264 AAC - Downloadhub.torrent
  15. 1 like
    Bogan (2017) Download Tamil Movie 720P HDTS x264 AAC 1GB ZippyMovieZ ExCluSivE Screenshots Download Links Watch online ~Extreme Seeding Started~ Please click 'Thanks' as a token of appreciation of our effort. [ZippyMovieZ.CH] Bogan (2017) Tamil 720P HDTS x264 AAC 1GB ZippyMovieZ ExCluSivE.torrent Magnet Link
  16. 1 like
    Om Namo Venkatesaya (2017) Download Telugu Movie Real DVDScr X264-ZippyMovieZ SCREENSHOTS Download Links ~Extreme Seeding Started~ Please click 'Thanks' as a token of appreciation of our effort. . [ZippyMovieZ.CH]Om Namo Venkatesaya (2017) Telugu Real DVDScr X264-ZippyMovieZ.torrent Magnet Link
  17. 1 like
  18. 1 like
    @Joseph John DVD expected on Feb 20 from central
  19. 1 like
    Didn't get. Where is the link please upload Kattapanayile Hrithik roshan
  20. 1 like
    Aanandam (2016) Download Malayalam Movie DVDRiP x264 AAC 500MB 5.1 ZippyMovieZ ExCluSivE Screenshots Download Links Download Aanandam Deleted Scenes Watch online ~Extreme Seeding Started~ Please click 'Thanks' as a token of appreciation of our effort. [ZippyMovieZ.CH] Aanandam (2016) Malayalam DVDRiP x264 AAC 500MB 5.1 ZippyMovieZ ExCluSivE.torrent Magnet Link
  21. 1 like
    General Format : MPEG-4 Format profile : Base Media Codec ID : isom File size : 2.19 GiB Duration : 2h 12mn Overall bit rate mode : Variable Overall bit rate : 2 371 Kbps ContentType : Movie Encoded date : UTC 2016-06-30 19:05:22 Tagged date : UTC 2016-06-30 19:05:39 Writing application : MkvToMp4 [www.mkvtomp4.ru] version: 0.224 (x64) HDVideo : Yes Video ID : 1 Format : AVC Format/Info : Advanced Video Codec Format profile : [email protected] Format settings, CABAC : Yes Format settings, ReFrames : 4 frames Format settings, GOP : M=4, N=50 Codec ID : avc1 Codec ID/Info : Advanced Video Coding Duration : 2h 12mn Bit rate : 2 048 Kbps Maximum bit rate : 3 487 Kbps Width : 1 280 pixels Height : 720 pixels Display aspect ratio : 16:9 Frame rate mode : Constant Frame rate : 25.000 fps Color space : YUV Chroma subsampling : 4:2:0 Bit depth : 8 bits Scan type : Progressive Bits/(Pixel*Frame) : 0.089 Stream size : 1.89 GiB (86%) Writing library : x264 core 148 r2601 a0cd7d3 Encoding settings : cabac=1 / ref=3 / deblock=1:0:0 / analyse=0x1:0x111 / me=hex / subme=7 / psy=1 / psy_rd=1.00:0.00 / mixed_ref=1 / me_range=16 / chroma_me=1 / trellis=1 / 8x8dct=0 / cqm=0 / deadzone=21,11 / fast_pskip=1 / chroma_qp_offset=-2 / threads=6 / lookahead_threads=1 / sliced_threads=0 / nr=0 / decimate=1 / interlaced=0 / bluray_compat=0 / constrained_intra=0 / bframes=3 / b_pyramid=2 / b_adapt=1 / b_bias=0 / direct=1 / weightb=1 / open_gop=0 / weightp=2 / keyint=50 / keyint_min=26 / scenecut=0 / intra_refresh=0 / rc_lookahead=40 / rc=abr / mbtree=1 / bitrate=2048 / ratetol=1.0 / qcomp=0.60 / qpmin=0 / qpmax=69 / qpstep=4 / vbv_maxrate=2100 / vbv_bufsize=2100 / nal_hrd=none / filler=0 / ip_ratio=1.40 / aq=1:1.00 Language : English Tagged date : UTC 2016-06-30 19:05:29 Audio ID : 2 Format : AAC Format/Info : Advanced Audio Codec Format profile : LC Codec ID : 40 Duration : 2h 12mn Bit rate mode : Variable Bit rate : 322 Kbps Maximum bit rate : 553 Kbps Channel(s) : 2 channels Channel(s)_Original : 6 channels Channel positions : Front: L C R, Side: L R, LFE Sampling rate : 48.0 KHz Compression mode : Lossy Stream size : 305 MiB (14%) Language : English Encoded date : UTC 2016-06-30 19:05:26 Tagged date : UTC 2016-06-30 19:05:29 SINGLE DIRECT FAST LINKS http://nitroflare.com/view/6B90C07FBA641BA/Velainu.Vandhutta.Vellaikaaran.2016.720p.WEB-HD.5.1.MP4.ESUBS.Tamil-TR.mp4 http://rapidgator.net/file/107931a9fe8724e84e5098d23d89a7cb/Velainu.Vandhutta.Vellaikaaran.2016.720p.WEB-HD.5.1.MP4.ESUBS.Tamil-TR.mp4.html 700MB LINKS http://nitroflare.com/view/A9BB541815E8BBA/Velainu.Vandhutta.Vellaikaaran.2016.720p.WEB-HD.5.1.MP4.ESUBS.Tamil-TR.mp4.001 http://nitroflare.com/view/E5FCD482B094688/Velainu.Vandhutta.Vellaikaaran.2016.720p.WEB-HD.5.1.MP4.ESUBS.Tamil-TR.mp4.002 http://nitroflare.com/view/21CF21248899703/Velainu.Vandhutta.Vellaikaaran.2016.720p.WEB-HD.5.1.MP4.ESUBS.Tamil-TR.mp4.003 http://nitroflare.com/view/7C70549DA4A0CED/Velainu.Vandhutta.Vellaikaaran.2016.720p.WEB-HD.5.1.MP4.ESUBS.Tamil-TR.mp4.004 http://nitroflare.com/view/9FCB6DF13B7EB56/Velainu.Vandhutta.Vellaikaaran.2016.720p.WEB-HD.5.1.MP4.ESUBS.Tamil-TR.srt http://rapidgator.net/file/b620705cc9c3630ef40d15995000684d/Velainu.Vandhutta.Vellaikaaran.2016.720p.WEB-HD.5.1.MP4.ESUBS.Tamil-TR.mp4.001.html http://rapidgator.net/file/914815ad538189d2eaf82510ea839839/Velainu.Vandhutta.Vellaikaaran.2016.720p.WEB-HD.5.1.MP4.ESUBS.Tamil-TR.mp4.002.html http://rapidgator.net/file/aa05189e6c6e6d48c864bbfb49307bb1/Velainu.Vandhutta.Vellaikaaran.2016.720p.WEB-HD.5.1.MP4.ESUBS.Tamil-TR.mp4.003.html http://rapidgator.net/file/1ca349149420b921af4c95cc9d4a1927/Velainu.Vandhutta.Vellaikaaran.2016.720p.WEB-HD.5.1.MP4.ESUBS.Tamil-TR.mp4.004.html http://rapidgator.net/file/3aed5ee628348a8c3773c77c290856d3/Velainu.Vandhutta.Vellaikaaran.2016.720p.WEB-HD.5.1.MP4.ESUBS.Tamil-TR.srt.html