Search the Community

Showing results for tags 'desi'.

  • Search By Tags

    Type tags separated by commas.
  • Search By Author

Content Type


Forums

  • General Lounge
    • Announcements and Updates
    • Member Introductions
    • Help & FAQ
    • Post your Movie Requests
    • Ethical Hacking Tricks and Internet Tricks
  • Free Online Movies
    • HollyWood Movies
    • BollyWood Movies
    • Malayalam Movies
    • Tamil Movies
    • Telugu Movies
    • Other Movies
  • TV Shows
    • English TV Shows
  • Ebooks
    • Tips ,Tutorials and E-Books
  • Adult Section
    • XXX HD Videos
    • XXX Adult Movies
    • XXX VIDEOS
    • XXX PICTURES
    • XXX STORIES
    • XXX Comics and Magazine
  • Music Database
    • English Albums
    • English Collections
  • Premium Accounts And Premium Browser
    • Premium Account And Premium Browser
    • Free 18+ Site Premium Accounts
  • Games & SoftWare
    • PC Games
    • PC Softwares
    • Mac OSX Applications
  • Mobile Zone
    • Android Applications
    • Android Games
    • Android Themes / Live Wallpapers
    • Iphone Applications
  • Gallery
    • Actress Gallery
    • HD Wallpapers
  • WebMaster Source
    • Vbulletin
    • Wordpress
    • Invision Power Board
    • PHP / HTML scripts

Categories

  • Records

Calendars

  • Community Calendar

Categories

  • Files

Categories

  • Videos
  • Movies

Found 97 results

  1. Yaman (2017) Telugu DeSi SCR x264 AAC 700MB ZippyMovieZ Quote Format : Matroska Format version : Version 2 File size : 696 MiB Duration : 2h 26mn Overall bit rate : 666 Kbps Encoded date : UTC 2017-02-27 08:18:52 Writing application : mkvmerge v8.5.2 ('Crosses') 32bit Writing library : libebml v1.3.3 + libmatroska v1.4.4 Video ID : 1 Format : AVC Format/Info : Advanced Video Codec Format profile : [email protected] Format settings, CABAC : Yes Format settings, ReFrames : 4 frames Codec ID : V_MPEG4/ISO/AVC Duration : 2h 26mn Bit rate : 593 Kbps Width : 608 pixels Height : 256 pixels Display aspect ratio : 2.40:1 Frame rate mode : Constant Frame rate : 25.000 fps Color space : YUV Chroma subsampling : 4:2:0 Bit depth : 8 bits Scan type : Progressive Bits/(Pixel*Frame) : 0.152 Stream size : 619 MiB (89%) SCREENSHOTS https://www.imagebun.us/image/81YQE https://www.imagebun.us/image/811Y7 https://www.imagebun.us/image/813qR https://www.imagebun.us/image/81SWu Download Links
  2. Directed by: Harish Kotian, Sandeep Choudhary Starring by: Suraj chauhan, Sahil Anand, Harsh Naagar Genres: Drama, Comedy Country: India Language: Hindi Download Link :- http://linkshrink.net/7LMcwm [ Watch Online ]
  3. D

    Desi_wife_fucked_by_hubby Size: 10522227 bytes (10.03 MiB), duration: 00:02:17, avg.bitrate: 614 kb/s Audio: aac, 22050 Hz, stereo (eng) Video: h264, yuv420p, 640x360, 25.00 fps(r) (eng) Download link Desi_wife_fucked_by_hubby.mp4 - 10.03 MB
  4. Big_boobs_Desi_wife_top_on_the_hubby Size: 5932530 bytes (5.66 MiB), duration: 00:01:17, avg.bitrate: 616 kb/s Audio: aac, 22050 Hz, stereo (eng) Video: h264, yuv420p, 360x320, 25.00 fps(r) (eng)vvvv Download link Big_boobs_Desi_wife_top_on_the_hubby.mp4 - 5.66 MB
  5. Desi_house_wife_home_made_fuck_with_condom_cover_dick Size: 15461987 bytes (14.75 MiB), duration: 00:02:21, avg.bitrate: 877 kb/s Audio: aac, 22050 Hz, stereo (eng) Video: h264, yuv420p, 640x360, 30.00 fps(r) (eng) Download link Desi_house_wife_home_made_fuck_with_condom_cover_dick.mp4 - 14.75 MB
  6. Sexy desi bhabhi wet pussy driller hard Size: 21231248 bytes (20.25 MiB), duration: 00:01:29, avg.bitrate: 1908 kb/s Audio: aac, 44100 Hz, stereo (und) Video: h264, yuv420p, 1280x720, 59.92 fps(r) (und) Download link sssss.mp4 - 20.25 MB
  7. Desi_wife_fucked_by_hubby_missionary_and_doggy_style_with_loud_moaning Size: 13528947 bytes (12.90 MiB), duration: 00:02:55, avg.bitrate: 618 kb/s Audio: aac, 22050 Hz, stereo (eng) Video: h264, yuv420p, 554x416, 25.00 fps(r) (eng) Download link Desi_wife_fucked_by_hubby_missionary_and_doggy_style_with_loud_moaning.mp4 - 12.90 MB
  8. Lucky_desi_husband_fucks_he_beatiful_pussy_wife Size: 7963152 bytes (7.59 MiB), duration: 00:00:28, avg.bitrate: 2275 kb/s Audio: aac, 44100 Hz, mono (und) Video: h264, yuv420p, 720x1280, 30.00 fps(r) (und) Download link Lucky_desi_husband_fucks_he_beatiful_pussy_wife.mp4 - 7.59 MB
  9. Big_boobs_desi_bengali_girlfriend_riding_with_audio Size: 19159742 bytes (18.27 MiB), duration: 00:04:08, avg.bitrate: 618 kb/s Audio: aac, 22050 Hz, stereo (eng) Video: h264, yuv420p, 360x480, 24.00 fps(r) (eng) Download link Big_boobs_desi_bengali_girlfriend_riding_with_audio.mp4 - 18.27 MB
  10. Yaman (2017) Download Telugu Movie DeSi SCR x264 AAC 700MB ZippyMovieZ ExCluSivE Screenshots Download Links ~Extreme Seeding Started~ Please click 'Thanks' as a token of appreciation of our effort. [ZippyMovieZ.US] Yaman (2017) Telugu DeSi SCR x264 AAC 700MB ZippyMovieZ ExCluSivE.torrent Magnet Link
  11. Indian_desi_bhabhi_cowgirl_riding_top_on_the_hubby_720p Size: 51167577 bytes (48.80 MiB), duration: 00:04:31, avg.bitrate: 1510 kb/s Audio: aac, 22050 Hz, stereo (eng) Video: h264, yuv420p, 910x720, 24.00 fps(r) (eng) Download link Indian_desi_bhabhi_cowgirl_riding_top_on_the_hubby_720p.mp4 - 48.80 MB
  12. D

    Desi college girl bath video Size: 31212279 bytes (29.77 MiB), duration: 00:01:58, avg.bitrate: 2116 kb/s Audio: aac, 48000 Hz, stereo (eng) Video: h264, yuv420p, 1280x720, 24.00 fps(r) (eng) Download link Desi college girl bath video.mp4 - 29.77 MB
  13. D

    Hot desi couple enjoying in sofa Size: 29938407 bytes (28.55 MiB), duration: 00:06:30, avg.bitrate: 614 kb/s Audio: aac, 48000 Hz, stereo (und) Video: h264, yuv420p, 320x240, 23.00 fps(r) (und) Download link Hot desi couple enjoying in sofa.mp4 - 28.55 MB
  14. D

    Hot desi girl dress changing Size: 9367887 bytes (8.93 MiB), duration: 00:02:10, avg.bitrate: 576 kb/s Audio: aac, 44100 Hz, stereo (eng) Video: h264, yuv420p, 320x240, 29.97 fps(r) (eng) Download link Hot desi girl dress changing.mp4 - 8.93 MB
  15. Kittu Unnadu Jagratha (2017) - Telugu - 🎧 Bow Bow Boys - [ iTunes Rip ] - Desi Ripper Cast & Crew : Raj Tarun, Anu Emmanuel Director : Vamsi Krishna Music Director : Anup Rubens Audio On : Aditya Music Download Link :- [ iTunes Rip ]
  16. Directed by: G Ram Prasad Starring by: Naga Anvesh, Kruthika Jayakumar, Prakash Raj Genres: Action, Romance Country: India Language: Telugu Download Link :- http://linkshrink.net/73MVGg
  17. RANGOON (2017) Download Hindi Movie - Desi pDVDRip - x264 - 1xCD (Audio Cleaned) - ChapS - DrC - BollyWooD MoviE - (Vishal Bharadwaj's) * RANGOON * (2016) Desi pDVDRip - x264 (AAC 2.1 Audio) *2017* SCREENSHOTS Download Links ~Extreme Seeding Started~ Please click 'Thanks' as a token of appreciation of our effort. . [ZippyMovieZ.US] RANGOON (2017) Hindi - Desi pDVDRip - x264 - 1xCD (Audio Cleaned) - ChapS - DrC.torrent Magnet Link It's A Team DrC Release Always Seed After Complete Enjoy. Xtreme High Speed Seeding
  18. Year.............: 2017 IMDB Link......: http://www.imdb.com/title/tt4909752/ Genre............: Action | Drama | History Cast.............: Saif Ali Khan | Shahid Kapoor | Kangana Ranaut Source..........: ExDR Ripper...........: FrostSchutz Rip Size.........: 697 MB Runtime........: 2 Hours 28 Minutes Codec............: x264 - 2 Pass Container........: MKV Resolution.......: 608x256 Aspect Ratio.....: 2.35:1 Video Bitrate....: 579 Kbps Audio Language...: Hindi Audio Codec......: AAC Subtitles.........: N/A Audio............: AAC 2.1 Channel - 80 Kbps Framerate........: 25Fps -= S C R E E N S H O T S =- http://rapidgator.net/file/cccb4eafed974ff38f51192c8d13d936/RANGOON_(2017)_-_Desi_pDVDRip_-_x264_-_1xCD_(Audio_Cleaned)_-_ChapS_-_DrC.mkv.html http://nitroflare.com/view/72B0035C3420F76/RANGOON_(2017)_-_Desi_pDVDRip_-_x264_-_1xCD_(Audio_Cleaned)_-_ChapS_-_DrC.mkv https://openload.co/f/xU1um0M_XpU/RANGOON_%282017%29_-_Desi_pDVDRip_-_x264_-_1xCD_%28Audio_Cleaned%29_-_ChapS_-_DrC.mkv
  19. Format : AVC Format/Info : Advanced Video Codec Format profile : [email protected] Format settings, CABAC : Yes Format settings, ReFrames : 8 frames Codec ID : V_MPEG4/ISO/AVC Duration : 2 h 27 min Bit rate : 581 kb/s Width : 640 pixels Height : 280 pixels Display aspect ratio : 2.25:1 Frame rate mode : Constant Frame rate : 23.976 (24000/1001) FPS Color space : YUV Chroma subsampling : 4:2:0 Bit depth : 8 bits Scan type : Progressive Audio ID : 2 Format : AAC Format/Info : Advanced Audio Codec Format profile : LC Codec ID : A_AAC Duration : 2 h 27 min Bit rate : 80.0 kb/s Channel(s) : 2 channels Channel positions : Front: L R Sampling rate : 44.1 kHz Frame rate : 43.066 FPS (1024 spf) Compression mode : Lossy Language : Hindi Default : Yes Forced : Yes [Source: DxDR Thanks] Sample Including In Torrent Rangoon (2017) Hindi 1CD Desi pDVD x264 AAC - Downloadhub.torrent
  20. Webcam series=fame desi couple ~3 new videos Download link Part-1 desi_fame_kitchen_cpl_(1).mp4 - 116.66 MB Part-2 desi_fame_kitchen_cpl_(2).mp4 - 196.34 MB Part-3 desi_fame_kitchen_cpl_(3).mp4 - 156.48 MB
  21. Desi tamil baby fucked in jungle happy sex Size: 31712727 bytes (30.24 MiB), duration: 00:02:50, avg.bitrate: 1492 kb/s Audio: aac, 44100 Hz, stereo (und) Video: h264, yuv420p, 360x640, 60.00 fps(r) (und) Download link Desi_tamil_baby_fucked_in_jungle_happy_sex.mp4 - 30.24 MB
  22. Movie Name : Assassins Creed (2010) Quality : 720P | HDRip | HEVC Format : MKV Audio : MP3 Size : 850MB Language : Telugu | Hindi | Tamil | English Subtitle : English FILESFLASH.com::- VDRIVE.to::- FILESCDN.com:- USERCLOUD.com::- http://turbobit.net/ejump343w9tc.html http://filesflash.net/rvgfyrey https://userscloud.com/tfta7f06v4mu https://vdrive.to/52o3t476cj4c.html https://filescdn.com/k6hbtq6br8g1
  23. Directed by: Sujoy Ghosh Written by: Sujoy Ghosh, Suresh Nair Starring by: Vidya Balan, Arjun Rampal, Jugal Hansraj Genres: Thriller Country: India Language: Hindi Download Link :- http://linkshrink.net/7hzmmo
  24. Video Format : MPEG Video Format version : Version 2 Format profile : [email protected] Format settings, BVOP : Yes Format settings, Matrix : Custom Format settings, GOP : M=3, N=15 Format settings, picture structure : Frame Duration : 1mn 42s Bit rate mode : Variable Bit rate : 80.2 Mbps Maximum bit rate : 8 000 Kbps Width : 720 pixels Height : 576 pixels Display aspect ratio : 4:3 Frame rate : 25.000 fps Standard : PAL Color space : YUV Chroma subsampling : 4:2:0 Bit depth : 8 bits Scan type : Interlaced Scan order : Top Field First Compression mode : Lossy Bits/(Pixel*Frame) : 7.734 Time code of first frame : 00:01:00:00 Time code source : Group of pictures header GOP, Open/Closed : Closed Stream size : 980 MiB (96%) Audio #1 Format : AC-3 Format/Info : Audio Coding 3 Mode extension : CM (complete main) Format settings, Endianness : Big Muxing mode : DVD-Video Duration : 1mn 42s Bit rate mode : Constant Bit rate : 448 Kbps Channel(s) : 6 channels Channel positions : Front: L C R, Side: L R, LFE Sampling rate : 48.0 KHz Frame rate : 31.250 fps (1536 spf) Compression mode : Lossy Stream size : 5.46 MiB (1%) Audio #2 Format : DTS Format/Info : Digital Theater Systems Mode : 16 Format settings, Endianness : Big Muxing mode : DVD-Video Duration : 1mn 42s Bit rate mode : Constant Bit rate : 1 510 Kbps Channel(s) : 6 channels Channel positions : Front: L C R, Side: L R, LFE Sampling rate : 48.0 KHz Frame rate : 93.750 fps (512 spf) Bit depth : 24 bits Compression mode : Lossy Stream size : 18.4 MiB (2%) GAJINITELUGUUNTOUCHEDDVD9.torrent
  25. DJ Duvvada Jagannadham Teaser - [ 1080p - 720p ] - Desi Ripper Download Link :- [ 1080p ] [ 720p ]