Sign in to follow this  
Followers 0
Sa!n7 SaRca5m

Dangal (2016) Download Hindi Movie 1GB x264 DesiPDvD AAC 2.0 Line-Audio -DDR

2 posts in this topic

Dangal (2016) Download Hindi Movie 1GB x264 DesiPDvD AAC 2.0 Line-Audio -DDR

ddr_logo.png

879aa1dbe18961b51ce4626a8ddaa496.jpg

1 GB DesiPDVD Rip x264

Line Audio AAC Stereo

English Sub

SCREENSHOTS

55265609a7b5f5244b62cc2c7bcc7f5c.th.png fa235544ef02417c1557edc5642f3e29.th.png a523f0ab20b16a5df4916032d10f283d.th.png 12e97797fb4e3d096edf1ccc76f836b1.th.png 5c92e11787b5e1e452fbbe2a380626b7.th.png 2d1c516223c295e66f3209871600cc0a.th.png 9da1c745a70b7d8440c178fd321c0ce7.th.png f0c03482450b86e5f8705574bbd6ba5d.th.png 3d960c6a764205773eb9c5093150e6d3.th.png 2cb04dd70078825096aaf0e8de4b0da7.th.png 60fd5a05da203fbdfb64c4b0e853b7e1.th.png 92fd7c463189ff4ed7f2b03feb293bba.th.png 79bc7de967f3188af6b6992a6f6e70fd.th.png 667a950b662d34fd0fd8205313d2ddb9.th.png bbfa16f816bcd9f580fe4ba573be4b20.th.png
SPECS

 

Quote

Source: DesiPDvD @ DUS Ka Ware house

Format : Matroska
File size : 1 021 MiB
Duration : 2 h 38 min
Overall bit rate : 899 kb/s

Video
ID : 1
Format : AVC
Format/Info : Advanced Video Codec
Format profile : [email protected]
Format settings, CABAC : Yes
Format settings, ReFrames : 16 frames
Codec ID : V_MPEG4/ISO/AVC
Duration : 2 h 38 min
Bit rate : 769 kb/s
Width : 720 pixels
Height : 288 pixels
Display aspect ratio : 2.500
Frame rate mode : Constant
Frame rate : 23.976 (24000/1001) FPS
Color space : YUV
Chroma subsampling : 4:2:0
Bit depth : 8 bits
Scan type : Progressive
Bits/(Pixel*Frame) : 0.155
Stream size : 873 MiB (86%)

Audio
ID : 2
Format : AAC
Format/Info : Advanced Audio Codec
Format profile : LC
Codec ID : A_AAC
Duration : 2 h 38 min
Bit rate : 128 kb/s
Channel(s) : 2 channels
Channel positions : Front: L R
Sampling rate : 48.0 kHz
Frame rate : 46.875 FPS (1024 spf)
Compression mode : Lossy
Delay relative to video : 9 ms
Stream size : 145 MiB (14%)
Language : Hindi
Default : Yes
Forced : No

Chapters : None on source



SAMPLE Included

A DDR Exclusive Encode

Download Links

Quote

Watch Online

Quote

~Extreme Seeding Started~

Please click 'Thanks' as a token of appreciation of our effort.

QnC2C27.png.

[ZippyMovieZ.CH] Dangal (2016) Hindi 1GB x264 DesiPDvD AAC 2.0 Line-Audio -DDR.torrent

Magnet Link

Share this post


Link to post
Share on other sites
Download Now

Create an account or sign in to comment

You need to be a member in order to leave a comment

Create an account

Sign up for a new account in our community. It's easy!


Register a new account

Sign in

Already have an account? Sign in here.


Sign In Now
Sign in to follow this  
Followers 0