Sign in to follow this  
Followers 0
Ab#*j*t#

Assassins Creed (2016) Tamil DESI SCR x264 AAC 700MB ZippyMovieZ ExCluSivE

1 post in this topic

Assassins Creed (2016) Tamil DESI SCR x264 AAC 700MB ZippyMovieZ ExCluSivE

AC.jpg

Quote

 

Quote

General
Format                                   : Matroska
Format version                           : Version 4 / Version 2
File size                                : 720 MiB
Duration                                 : 1 h 40 min
Overall bit rate mode                    : Variable
Overall bit rate                         : 997 kb/s

Video
ID                                       : 1
Format                                   : AVC
Format/Info                              : Advanced Video Codec
Format profile                           : [email protected]
Format settings, CABAC                   : Yes
Format settings, ReFrames                : 5 frames
Codec ID                                 : V_MPEG4/ISO/AVC
Duration                                 : 1 h 40 min
Bit rate                                 : 907 kb/s
Width                                    : 720 pixels
Height                                   : 320 pixels
Display aspect ratio                     : 2.25:1
Frame rate mode                          : Constant
Frame rate                               : 30.000 FPS
Color space                              : YUV
Chroma subsampling                       : 4:2:0
Bit depth                                : 8 bits
Scan type                                : Progressive
Bits/(Pixel*Frame)                       : 0.131
Stream size                              : 655 MiB (91%)
Writing library                          : x264 core 146 r2538 121396c
Language                                 : English
Default                                  : Yes
Forced                                   : No

Audio
ID                                       : 2
Format                                   : MPEG Audio
Format version                           : Version 1
Format profile                           : Layer 3
Mode                                     : Joint stereo
Mode extension                           : MS Stereo
Codec ID                                 : A_MPEG/L3
Codec ID/Hint                            : MP3
Duration                                 : 1 h 40 min
Bit rate mode                            : Variable
Bit rate                                 : 88.2 kb/s
Nominal bit rate                         : 96.0 kb/s
Channel(s)                               : 2 channels
Sampling rate                            : 44.1 kHz
Frame rate                               : 38.281 FPS (1152 spf)
Compression mode                         : Lossy
Stream size                              : 63.5 MiB (9%)
Writing library                          : LAME3.99r
Encoding settings                        : -m j -V 4 -q 3 -lowpass 15.1 --abr 96
Language                                 : Tamil
Default                                  : Yes
Forced                                   : No

 

~Extreme Seeding Started~

Please click 'Thanks' as a token of appreciation of our effort.

QnC2C27.png.

[ZippyMovieZ.CH] Assassins Creed (2016) Tamil DESI SCR x264 AAC 700MB ZippyMovieZ ExCluSivE.torrent

Magnet Link

Share this post


Link to post
Share on other sites
Download Now

Create an account or sign in to comment

You need to be a member in order to leave a comment

Create an account

Sign up for a new account in our community. It's easy!


Register a new account

Sign in

Already have an account? Sign in here.


Sign In Now
Sign in to follow this  
Followers 0